Download the official free installers for Windows, Android, Mac and Linux. Backstreet Boys - Everybody (Backstreet's Back) (Radio Edit) 3:45 02. Tải game Battlefield V (Battlefield 5) [52,2 GB] thể loại Game Offline tốc độ cao từ fshare, 4share, google drive cho tốc độ vượt trội. Descargar pelicula Dvdrip Audio Latino HD la mejor calidad 1 link o 7 links por partes elige el mejor servidor de toda nuestra variedad. Cualquier acción que no sea su bloqueo, o la solicitud expresa del servicio vinculado a la cookie, implican el consentimiento para su uso. Hola, quiero saber cómo hacerle para que mi utorrrent descarge mas rapido ya que mi conexion es de 1 mega y no tengo router y e escuchado que se puede hacer que vaya hasta 300 kbps/s y quiero. 6 License Free Language English Icon Description MegaDownloader is a download client for MEGA, allowing you to easily download files, and. Online Shopping at Gearbest for the best cell phones, electronic gadgets, toys, sporting goods, home products and apparel for geeks at unbeatable great prices. Acerca de Ted 2. Other than that good luck. Now try to input your download links on to the software. Element SPA项目模板上线啦! Forked from vuejs-templates/webpack. Also über die Nacht erneut die ca. com MegaDownloader allows you to easily download videos, watch those videos and organize the videos you store on your computer. Guide to a happy Share Thread Leechers: 1. top bittorent movies, top bittorent series and the most popular torrent files in Bolivia. Mega (Mega Series Book 1) (English Edition) eBook: Celoso 11. how to install battlefield 1 crack game - PC Games or Mobile Games Free, Watch Gameplay - Games Lords. 250 fps (1536 spf) Compression mode : Lossy Stream size : 395 MiB (100%) Legendas SUP e menu de capítulos. O interessante é que pesquisando pelo google encontrei a URL do iTUNES com este filme, lá dizia HD, ai baixei o iTunes para Windows louco pra ver o trailer e conferir se é mesmo HD, e quando pesquisei lá não encontrei o filme Brumas De Avalon aka The Mists Of Avalon, ai não entendi direito o que aconteceu, acho que foi erro na página, mesmo porque o link do trailer nem abra. Music Albums exceeding 5 files are to be zipped. How to create a 3D Terrain with Google Maps and height maps in Photoshop - 3D Map Generator Terrain - Duration: 20:32. Quando o circo faz uma exibição em Nova York Anatoly Cherkasov (Elya Baskin), o palhaço do circo, pensa em desertar e pedir asilo, mas não consegue por ter uma crise nervosa. Other than that good luck. Veamos que tiene y cómo funciona: Cómo funciona este programa y algunas características. Imagínate que tú necesitas descargar algo de Internet, por ejemplo la imagen de arriba con los 3 recuadros en rojo. 檔案縮小軟體。影片檔案太大無法分享給朋友嗎?推薦高品質線上影片壓縮工具,不需要需安裝任何軟體,支援mp4、flv等多格式的壓縮與轉檔,還能輕易調整視頻的畫質和尺寸,無論是要上。. Discografía Green village maria 2 coupons Day green day awesome as fxxk mega 320 kbps MEGA This is great news for avid Green Day fans who have stuck with the which are named Uno!, Dos! Download Video Mega Mash (Jason Mraz Vs. Yo uso megadownloader desde que se creo y a dia de hoy en este mismo instante lo estoy usando y teniendo 100Mb/s de fibra optica me esta descargando a 500kbps, osease patetico. Forward slash (/) means "divided by". You may have to register before you can post: click the register link above to proceed. Orange Box Ceo 8,800,618 views. MegaDownloader es el gestor de descarga de archivos desde Mega con el que podrás organizar la bajada de archivos de este MegaDownloaderDescargar Saga Chucky Full HD Latino por; Nonpalidece Descargas de discos completos de Nonpalidece. Orange Box Ceo 8,288,734 views. Hiçbir video Asurekazani. quickverse 2011 platinum download torrent. Ver ver ocho apellidos catalanes completa castellano gratis. There are 8 bits in a byte. 5 MOD APK (Unlimited Money). Megatools v1. La TeamAkinaMotors est une team de drift sur tout les jeux qui le propose. The king of Fighters 2002 magic plus 2 MEGA [MG] Descargar. Megadownloaderapp. Página dedicada a las descargas por los mejores servidores disponibles. No other url shorteners. Megadownloader v1. php(143) : runtime-created function(1) : eval()'d code(156) : runtime-created. Acerca de Ted 2. game downloads start and then drop to 0 bytes /sec This started recently. los pokemon o los juegos que quieran de esta consola en su telefono. Cette option nécessite cependant l’installation de vlc media player [] un utilitaire de telechargement facile a manier , telechargez facilement les fichiers depuis le site mega avec megadownloader / megadownloader est un logiciel dédié au téléchargement des fichiers stockés sur le site d’hébergement mega le successeur du fameux. Lego Star Wars 2 [PS2] [PAL] [Español] [MEGA] Solo Por MEGA. Otro consejo es el de Juanfer92: al descargar de Mega utilicen Megadownloader ya que con los demás gestores de descarga al descargar de mega descargar muy lento a mi personalmente me descargar a 150kbts con jdwoloander y mypony mientras que con Megadownloader me descarga a. Proshow producer 5 0. Desde Armin Van Buuren feat. Télécharger Biffty La Potence Album {ZIP & Torrent} HQ HOT 2018 Telecharger Album Biffty La Potence Complet Gratuit [Deluxe Edition] Biffty La Potence (2018) - Telecharger l'album complet TELECHARGER~ Biffty La Potence Telecharger Complet Album Gratuitement [FUITE] TÉLÉCHARGER Biffty La Potence. Beat – Run-Dmc Feat. 1 de forma directa con el navegador con jdownloader con megadownloader sin pausar los archivos y de todas. Megadownloader v1. Crysis 3 Crack Working 0 Installation ,Index of free Download Lagu Tuto Comment Modder Crysis Premier Du Nom Kanardwc mp3 gratis, File size 5. 5 MOD APK (Unlimited Money). Tutorial how to download, you can see HERE) • Link Mega. Fix MegaDownloader 0 KBPS Not - Secure & Safe to use. Orange Box Ceo 8,288,734 views. co/bTJbqNjcDj #. Qualidade: 320 Kbps 01 – Dito e Feito 02 – Essa é Pra Comemorar 03 – Hoje Eu Tô Excelente 04 – Meu Medo 05 – Princesinha Mandona 06 – Se Organizar, Todo Mundo Beija 07 – Tapete Vermelho 08 – Desandou 09 – Vira o Dobro 10 – Você Não é Ela 11 – Amigo Taxista 12 – Sonha Comigo 13 – Cadeira De Aço BAIXAR DIRETO. Juntos, ele, Capitão Falange e a baleia Bolha vivem grandes aventuras no mar e estão à procura da Ilha Açúcar, uma ilha onde todas as coisas são feitas de doces. Main features of program:. 250 fps (1536 spf) Compression mode : Lossy Stream size : 395 MiB (100%) Legendas SUP e menu de capítulos. obs: caso queira baixar só o "Audio do Video", selecione "Mp3" e depois desmarque "Detectar automaticamente os melhores ajustes". >92131441 >with zero context of the narrative. torrent, either add them to the a zip of the game or just don’t upload those misc files. ladimir Ivanoff (Robin Williams), um saxofonista do circo de Moscou, sente uma incrível falta de liberdade em seu país. Yumi Matsutoya (formerly Yumi Arai) became one of the most famous members of Japan's singer/songwriter era in the 1970s, and continued to garner hits into the 2000s, a notable feat if one considers the careers of her Western contemporaries: Carly Simon, Joni Mitchell, Laura Nyro, and so on. MP3 Quality Modifier - MP3減肥工具,想幫MP3瘦身的最主要原因,不外乎是要讓手機、MP3播放器能夠放進更多的音樂,這個小軟體操作起來很容易,只要將MP3檔案或整個資料夾拖放到其主程式介面,再於Rate(kbps)的下拉式選單選擇一下取樣率(越低檔案轉出來越小),按一下〔Start Process〕就可以開始轉檔,轉. 01 Kabhi Kabhi Aditi Zindagi. Discord server got banned, lol! Nice job 👌 Relevance of Posts All files here must be hosted on MEGA and can be mirrored on free hosts eg. หน่วยในการจำกัดความเร็วนั้นจะเป็น Kbps โดยสามารถเปรียบเทียบความเร็ว 1,000 (1,024) Kbps = 1 Mbps ซึ่งหากใช้อินเตอร์เน็จ 10. microsoft office 2013 deutsch torrent descargar libro final. Sitemizde yer alan videolar başka sitelerden derlenmiştir. 3 mega a 1 the 100 mega filmes the 1975 mega 1 the beatles mega 1 megabyte 1 mega 1 megapascal 1 megaton 1 megaohm 1 mega link. Mariah Carey Video 'Touch My Body' 03:24. 0 KHz Frame rate : 31. The World of Warcraft community forums have moved! These forums are in read-only mode. only gonsling's character was somewhat interesting, and that replicant terminator too with her weird reactions due to the lack of emotional experience. Optimus Sump is a potentially hazardous area but for the most part although hes able hes not exactly mad because of his weaker cumulative far 2 cry patch 1. Acerca de Ted 2. But what we didn't know is that we can actually download Mega Files using …. NOTES: 1) "x" means "multiplied by". Met VirtualBox, you can install a version of the operating system such as Linux, Solaris, and other versions of Windows (provided you have the original installation files, of course ) and run in the current versions of Windows. Nossa equipe realiza verificações sempre que um novo arquivo é carregado e analisa periodicamente os arquivos, para confirmar ou atualizar seu status. 0 Final is a powerful tool that provides a reliable and safe way to burn CDs, DVDs and Blu-ray Disc. 流量限制請重新連線換ip(手機網路4g開基地台給電腦連網速度不賴,可隨時斷線重連換ip)另外,常常會看到有人下載解壓錯誤,顯示毀損,不是我不補檔是因為這不是檔案有問題而是客戶端的問題,甚至有的人怎麼抓都不行,. Romântico anônimo – Marcos & Belutti 02. 檔案縮小軟體。影片檔案太大無法分享給朋友嗎?推薦高品質線上影片壓縮工具,不需要需安裝任何軟體,支援mp4、flv等多格式的壓縮與轉檔,還能輕易調整視頻的畫質和尺寸,無論是要上。. #GETITRIGHT 08. only gonsling's character was somewhat interesting, and that replicant terminator too with her weird reactions due to the lack of emotional experience. Baseado na série de quadrinhos de Robert Kirkman, essa série centra-se no mundo após um apocalipse zumbi, no qual um grupo de sobreviventes é conduzido pelo policial Rick Grimes (Andrew Lincoln) em busca de um local seguro para viver. The king of Fighters 2002 magic plus 2 MEGA [MG] Descargar. Megatools v1. 0 KHz Frame rate : 31. Can not Be Tamed 09. Camtasia Studio es un excelente conjunto de herramientas diseñadas especialmente para los aficionados a la grabación y edición de video. 0 0 megane fiyatları 0 megane araba fiyatları 0 megelli 250r 0 mega filmes the meg 123movies the 100 mega a mega 106. Download mega downloader 2. “My new album that I'm creating, which is finished pretty much, was written with this new instinctual energy that I've developed getting to know my fans. You can add location information to your Tweets, such as your city or precise location, from the web and via third-party applications. Take That, Lulu - Relight My. com/7z6d/j9j71. Moreover, it's completely free to use. La verdad, hasta ahora, no he tenido problemas para descargar de mega usando el jdownloader (mas allá de archivos corruptos, cortes en la conexión y cosas que mega hace desde que es mega), no sé si será cuestión de geobloqueo o alguna cosa así el límite de descarga. The portable version is a package or simply we can compressed version of a 100% working copy of Mega Downloader for PC. No other url shorteners. php(143) : runtime-created function(1) : eval()'d code(156) : runtime-created. Además, en el caso de los JPG, te permite especificar el nivel de compresión. [Archivio] Pagina 47 [Thread Ufficiale] amod - firmware modificato per DGND4000, DGN3500, DGN2200V3/V4 Guide e thread ufficiali. MƒÐR£ÃM where you can download software , music, movies , Operating Systems , Android App and Many More Only MƒÐR£ÃM Mf Dream http://www. 0 Here: (Select one of the links below. Hoy quiero compartir con ustedes un poderosa herramienta que de seguro les servirá mucho para poder navegar en INTERNET sin tener que ver ni una sola publicidad. We’ve discussed How-To Guides, Download Links & tweaks for several platforms that Mega. Would you be interested in Babymetal, Destrose, Pritz, Band-Maid, etc. Left 4 Dead 2 - v2. Otros los que considero los mejores, y otros, son sólo discos de estudio lanzados: Les digo, que el material que poseo es demasiado extenso, para darles una antesala, estamos hablando de cerca de miles de Discografías, sin contar las nuevas salidas. 0 KHz Frame rate : 31. Baseado na série de quadrinhos de Robert Kirkman, essa série centra-se no mundo após um apocalipse zumbi, no qual um grupo de sobreviventes é conduzido pelo policial Rick Grimes (Andrew Lincoln) em busca de um local seguro para viver. ExIso GUI makes easier to extract multiple iso with a queue list and a little FTP browser. O interessante é que pesquisando pelo google encontrei a URL do iTUNES com este filme, lá dizia HD, ai baixei o iTunes para Windows louco pra ver o trailer e conferir se é mesmo HD, e quando pesquisei lá não encontrei o filme Brumas De Avalon aka The Mists Of Avalon, ai não entendi direito o que aconteceu, acho que foi erro na página, mesmo porque o link do trailer nem abra. it's literally a bad movie narrative and plot wise and i've been saying this in all my posts. após um tempo baixando arquivos links do mega os downlaods param a velocidade cai para 0,00kb/s e não passa disso. NOTES: 1) "x" means "multiplied by". Poderia disponibilizar o arquivo torrent?. Roque Santeiro é uma trama de fantasia que se passa em Asa Branca, uma cidade fictícia que retrata as diferentes realidades brasileiras. 58 secBig money this week in Mega Millions and Powerball games. -Firefox ESR 52. 00kb/s and it doesn't go up. Una vez que diga esto, vamos a Megadownloader y vamos a añadir los enlaces de los archivos que queramos descargar. com Serverlarında barınmamaktadır. ¿tu ordenador va lento, pierdes la conexión a Internet, se reinicia solo, salen errores continuamente…? Éste es tu foro para resolver tus problemas con los virus. ayer quise descargar una película, al ingresar los link solo me bajó 2 , como cambie de proveedor de Internet pensé estos callampas tiene atados, y me cambie de wifi de mi vecina XD y empezaba a descargar sin problema , bajando otras versiones de megadownloader pasaba lo mismo, y hoy averiguando llegué a leer que les pusieron un parche a los servidores de mega y están aplicando el limite. https://www. Holi, este es el segundo coso de videos que publico, no pongo descripción porque me da flojera y porque puedo~ (? PD: Solo es el primer disco, el segundo es un documental. The links posted here can be direct links or protected with this or encoded in base 64 (encode / decode), these 3 methods ONLY. 皆さん、こんばんは、 陽いずる紅の宿 勝浦観光ホテル 宿主 です。 いよいよ 11月突入 ですね。 残すところ 今年もあと二ヶ月 足らず。. 00%" en la velocidad de descarga y ahí el programa ya no descarga nada, para el megadownloader o cierralo, abre el betternet, desconectate y vuelvete a conectar, en. 3600 Roms [PC] [Full] [2Links] Gratis [MEGA] Bajar Juegos PC Gratis. La TeamAkinaMotors est une team de drift sur tout les jeux qui le propose. Cuando me pongo a hacer limpieza desde el iPhone tardo una eternidad, pero con esta opción es todo muy sencillo y rápido. 7 Latest Version. No, non fatevi idee strane su di me. Tweet with a location. Uma variedade de Programas, Jogos e Tutoriais. Si en ese momento habilitaba otro link para descargar lo descargaba al máximo de velocidad hasta que llegaba al 96% o 97% y otra vez se reducía la velocidad. O aplicativo permite que os usuários para fazer o download de vários arquivos em um momento é completamente seguro e é tão simples como você poderia imaginar. While there are many programs and apps that let you download and watch videos, many of those programs have some type of sharing component. como reproductor, tengo Banshee. 0 MB de espacio en disco. The way MEGA Downloader works is simple: just paste a complete MEGA URL and press the 'download' button. Podrás encontrar noticias del mundo tecnológico y mucho más. Left 4 Dead 2 latest version: Fight off the infected Left 4 Dead 2 is a single and multiplayer action-packed first person. Play along with guitar, ukulele, or piano with interactive chords and diagrams. You can add location information to your Tweets, such as your city or precise location, from the web and via third-party applications. SMS (Bangerz) 02. Safe and Virus Free. Take That, Lulu - Relight My. Direct download. septiembre 14, 2013 - 9:45 am Mod-valentinSD. The files are new and they work on normal mega (up until the trial timer) and I've tried it with multiple files. Descargar pelicula Dvdrip Audio Latino HD la mejor calidad 1 link o 7 links por partes elige el mejor servidor de toda nuestra variedad. We recognize that your privacy is important. Our powerful software checks over a million proxy servers daily, with most proxies tested at least once every 15 minutes, thus creating one of the most reliable proxy lists on the Internet. Tải game Battlefield V (Battlefield 5) [52,2 GB] thể loại Game Offline tốc độ cao từ fshare, 4share, google drive cho tốc độ vượt trội. MEGA has been responsible for patching the MegaDownloader Bypass to avoid blocking, so MegaDownloader now has download limit, but NO. Summary: In the future, corporations have taken over the world and banned sex. If you wanted to know how many bps (bits per second) you are transferring, all you need to do is a straight decimal conversion. Sam Witwikie was engaged 0 be an ant blackberry but he blakberry across as beneficial and annoying, blackberry so many. Blog - MegaDownloader Tutorials, Guides, and Latest News. Find showtimes, watch trailers, browse photos, track your Watchlist and rate your favorite movies and TV shows on your phone or tablet! IMDb Mobile site. > A young girl is raised as a killer in the Yanbian province of China. obs: caso queira baixar só o "Audio do Video", selecione "Mp3" e depois desmarque "Detectar automaticamente os melhores ajustes". Lire les fichiers multimedias de n’importe quel format avec vlc media player [] vlc media player est un lecteur multimédia qui prend en charge la majeure partie des formats audio et vidéo , Rendu de la vidéo et du son amélioré nombreux codecs intégrés léger vlc media player intègre de nombreux codecs ce qui lui permet de lire plusieurs types de formats vidéo et audio sans l. Alan Grant (Sam Neil) decide acompanhar um aventureiro abastado (William H. Look up the "PSO DC Ives Pack 2. CNET may get a commission from retail offers. MegaDownloader 1. Currently there are two free download Mahabharata versions for you to download. A Encontrarte (Dueto con Aureo Baqueiro) 4. Download latest version of MegaDownloader for Windows. Backstreet Boys - Everybody (Backstreet's Back) (Radio Edit) 3:45 02. only gonsling's character was somewhat interesting, and that replicant terminator too with her weird reactions due to the lack of emotional experience. When uploading. Desde Armin Van Buuren feat. Queen – We Will Rock You 1:52 02. Megadownloader v1. William Tael em abril 11, 2016 11:35 PM. continua dando erro nos 7arquivos [ATTACH] olha ai ok,todos que eu baixei do game of thones dao erro e o resident evil 5 tambem deu erro @Crispim. 00kb/s and it doesn't go up. Ver ver ocho apellidos catalanes completa castellano gratis. Mariah Carey Video 'We Belong Together'. MegaDownloader, free and safe download. A partir de este momento Megadownloader va a comenzar a descargar de nuevo sin limite de descarga y sin problemas de conectividad, es decir, con la máxima velocidad. ¿tu ordenador va lento, pierdes la conexión a Internet, se reinicia solo, salen errores continuamente…? Éste es tu foro para resolver tus problemas con los virus. SMLoadr可以让用户快速下载歌曲并以专辑封面来构建一个离线音乐合集。软件是基于一些音乐网站的api来获取歌曲并下载存储到本地保存,保存的同时会为你直接生成附带专辑封面的音乐列表。. Một hòn đảo thơ mộng và xinh đẹp, tọa lạc tại một nơi ít người biết, với những bờ cát phủ đầy cây xanh và ánh nắng, cùng bãi biển mặt nước trong xanh. Descargaba un link a 6 MB/s (mi velocidad) pero cuando llegaba al 96% o 97% o 98% la velocidad bajaba a pocos Kbps y lógicamente demoraba su buen tiempo en terminar de descargar ese link. A megaestrutura, que inclui um cenário faraônico que relembra os clássicos dos anos 1970, provoca as mais diversas sensações nos fãs. Mariah Carey Video 'You're Mine (Eternal) (Remix Feat. The way MEGA Downloader works is simple: just paste a complete MEGA URL and press the 'download' button. Love Money Party 04. Euro Truck Simulator 2 - CRACK - Patch 1. Other than that good luck. … El software soporta descargas múltiples y permite diligenciar la prioridad de descarga, codificar los enlaces de MEGA y configurar un servirdor web o proxy. Protect the links as much as possible, just make sure that the link redirector does not deactivate. Top Sellers Recently Updated New Releases Upcoming Specials Virtual Reality Steam Controller Friendly. Alan Grant (Sam Neil) decide acompanhar um aventureiro abastado (William H. That's not the best way for doing a bootleg, because youtube converts the audio and it automatically loses quality, I guess you ripped it from the planet caravan youtube streaming or from the guy who is uploading the videos with sbd audio. MegaDownloader not working currently : MEGA. Def Leppard – Pour Some Sugar On Me 4:17 03. MegaDownloader 1. The freeware application you can download here is called MegaDownloader. 250 fps (1536 spf) Compression mode : Lossy Stream size : 395 MiB (100%) Legendas SUP e menu de capítulos. 7 To download bypassing the bandwidth quota, just enter the account in your browser, find what you wanna download, copy download link and paste it in the megadownloader. Bon Jovi – You Give Love A Bad Name 3:43 04. Yo uso megadownloader desde que se creo y a dia de hoy en este mismo instante lo estoy usando y teniendo 100Mb/s de fibra optica me esta descargando a 500kbps, osease patetico. “My new album that I'm creating, which is finished pretty much, was written with this new instinctual energy that I've developed getting to know my fans. 7 free download. nz: Download HERE • Link Direct: Download HERE • Link KumpulBagi: Download HERE • Link ClicknUpload: Download HERE. Anonymous pone a la Reserva Federal de EE UU en su punto de mira. Protect the links as much as possible, just make sure that the link redirector does not deactivate. obs: caso queira baixar só o "Audio do Video", selecione "Mp3" e depois desmarque "Detectar automaticamente os melhores ajustes". Macy) e sua esposa (Téa Leoni) numa visita aérea a Isla Sorna. Sp demo, which. Megadownloaderapp. MegaDownloader, free and safe download. Lire les fichiers multimedias de n’importe quel format avec vlc media player [] vlc media player est un lecteur multimédia qui prend en charge la majeure partie des formats audio et vidéo , Rendu de la vidéo et du son amélioré nombreux codecs intégrés léger vlc media player intègre de nombreux codecs ce qui lui permet de lire plusieurs types de formats vidéo et audio sans l. Exiso Gui 1. ru/46?keyword=flac-guns-n-roses&charset=utf-8&source=telegraph. 5 MOD APK (Unlimited Money). Forward slash (/) means "divided by". Podrás encontrar noticias del mundo tecnológico y mucho más. There are 8 bits in a byte. The latest Tweets from MegaDownloader App (@MegaDownloader_): "Fix MegaDownloader 0 KBPS Not Downloading Error [100% Working] - https://t. Para descargar Da clic en el enlace, espera la cuenta regresiva en la parte superior de la derecha y después da clic en saltar publicidad. Spotify, descargar gratis. Basta con que tengamos el programa abierto (se instala sin ninguna complicación) y copiar los enlaces de mega que queramos descargar, automáticamente nos aparecerá la ventana con los. The latest Tweets from MegaDownloader App (@MegaDownloader_): "Fix MegaDownloader 0 KBPS Not Downloading Error [100% Working] - https://t. Download doesn't start Archived Plus and never had a problem before with the free version but now the Downloads just sit at "connecting to peers" and 0 percent. quickverse 2011 platinum download torrent. 00kb/s and it doesn't go up. Discord server got banned, lol! Nice job 👌 Relevance of Posts All files here must be hosted on MEGA and can be mirrored on free hosts eg. Video by Hillard Grossman. Acerca de Ted 2. Baseado na série de quadrinhos de Robert Kirkman, essa série centra-se no mundo após um apocalipse zumbi, no qual um grupo de sobreviventes é conduzido pelo policial Rick Grimes (Andrew Lincoln) em busca de um local seguro para viver. Bit rate : 448 Kbps Channel(s) : 6 channels Channel positions : Front: L C R, Side: L R, LFE Sampling rate : 48. 7 con instalador y funcionan perfectamente ambas. 423 views VRay 4. Megadownloader v1. Solucion del Error en Megadownloader 0. De megaDownloader hay muchas cosas que rescatar, posee características relevantes que todo gestor de descargas debería tener. Orange Box Ceo 8,800,618 views. Mp3 320 kbps | House, Dance, Club, Disco, Reggae, Pop | 04:04:54 | 3CD | 560 Mb CD1 01. 0 BD 192 Kbps) / Inglés (DTS 5. Fix MegaDownloader 0 KBPS Not - Secure & Safe to use. Reasons for. only gonsling's character was somewhat interesting, and that replicant terminator too with her weird reactions due to the lack of emotional experience. MEGA Downloader es una aplicación que nos permitirá descargar cualquier archivo hospedado en MEGA de una manera sencilla y cómoda. The way MEGA Downloader works is simple: just paste a complete MEGA URL and press the 'download' button. o território da InGen onde outrora foram criados seres pré-históricos. Pessoal alguém sabe me dizer como não ter que esperar 2 horas para continuar a baixar conteúdo do MEGA, ocorre que nem pelo MegaDownloader ele fica um tempo tetando e dá erro, já reiniciei meu Windows 10 e nada , alguém sabe me dizer como fazer ? Att. descargar megadownloader. Properly label files so that they can be identified without asking someone else. Example:1400 Kbps divided by 8 equals 176 KBps transfer rate. Watch Movie. These calculations will help you to estimate the size of audio files. Other than that good luck. Video by Hillard Grossman. 修改自vue官方webpack模板. 4 min - Uploaded by TTV ChipHuong dan Crack proshow Producer 5 0 build 3222. Se inscreva! link da pag: A little secret to rock your YouTube subscribers. Lá, todos acreditam nos supostos milagres de um santo, Roque Santeiro (José Wilker), um mártir que teria morrido defendendo Asa Branca do bandido Navalhada (Oswaldo Loureiro). yo particularmente recomiendo que las personas que tengan menos de 512 kbps colocar entre: 64, 80, 96, 112. Poderia disponibilizar o arquivo torrent?. Página dedicada a las descargas por los mejores servidores disponibles. As we said before, it has got nothing to do with this cloud storage provider that appeared on the scene a few months after Megaupload. Nickelback – Rockstar 4:01 06. All files here must be hosted on MEGA and can be mirrored on Zippyshare. 0" It's an insane mod for PSO v2 that actually runs better compared to the original gdi release which is real cool. MegaDownloader latest version: MegaDownloader - A Free and fast Way to Download from Mega. Guide to a happy Share Thread Leechers: 1. Alan Grant (Sam Neil) decide acompanhar um aventureiro abastado (William H. A turnê Roger Waters The Wall, que rodou o mundo entre os anos de 2010 e 2013, filmada detalhadamente em três cidades. =O ya entiendo, hoy ando medio tonto de veras que solo el crack es hecho por un grupo genial que sea una copia del original =D, ya que solo encuentro puros repack's =S, repack's anywhere >:/. A partir de este momento Megadownloader va a comenzar a descargar de nuevo sin limite de descarga y sin problemas de conectividad, es decir, con la máxima velocidad. One account. MegaDownloader is the free and fast app that lets you download files directly from mega. 53 免安裝版 - MP3減肥工具 - 阿榮福利味 - 免費軟體下載 MP3 Quality Modifier - MP3減肥工具,想幫MP3瘦身的最主要原因,不外乎是要讓手機、MP3播放器能夠放進更多的音樂,這個小軟體操作起來很容易,只要將MP3檔案或整個資料夾拖放到其主程式介面,再於Rate(kbps)的下拉式選單選擇一下. Look up the "PSO DC Ives Pack 2. > A young girl is raised as a killer in the Yanbian province of China. Discord server got banned, lol! Nice job 👌 Relevance of Posts All files here must be hosted on MEGA and can be mirrored on free hosts eg. top bittorent movies, top bittorent series and the most popular torrent files in Bolivia. Star Wars: Episodio VIII – Los últimos Jedi (2017) 4K UHD [HDR] Latino-Ingles,Es una película de genero Ciencia ficción, En estados unidos con el nombre de Star Wars: Episode VIII – The Last Jedi, La primera orden regresa mas fuerte y ahora tiene acorralados a la resistencia, disponible en Mega y Google Drive. Poderia disponibilizar o arquivo torrent?. Mega stuck at 0 percent …. One PC is working OK. /hbg/ - Homebrew & Hacking General - "/vg/ - Video Game Generals" is 4chan's imageboard dedicated to the discussion of PC and console video games. SMLoadr可以让用户快速下载歌曲并以专辑封面来构建一个离线音乐合集。软件是基于一些音乐网站的api来获取歌曲并下载存储到本地保存,保存的同时会为你直接生成附带专辑封面的音乐列表。. [Archivio] Pagina 47 [Thread Ufficiale] amod - firmware modificato per DGND4000, DGN3500, DGN2200V3/V4 Guide e thread ufficiali. O uTorrent fica carregando eternamente. Download doesn't start Archived Plus and never had a problem before with the free version but now the Downloads just sit at "connecting to peers" and 0 percent. 0 KHz Frame rate : 31. Camtasia Studio es un excelente conjunto de herramientas diseñadas especialmente para los aficionados a la grabación y edición de video. A Encontrarte (Dueto con Aureo Baqueiro) 4. Basta con que tengamos el programa abierto (se instala sin ninguna complicación) y copiar los enlaces de mega que queramos descargar, automáticamente nos aparecerá la ventana con los. Internet & Network tools downloads - MEGA Link Downloader by Shinchiro and many more programs are available for instant and free download. it From megadownloaderapp. game downloads start and then drop to 0 bytes /sec This started recently. Now try to input your download links on to the software. Y SOLUCIONAR EL PROBLEMA DE MEGADOWNLOADER QUE SE QUEDA EL PROGRAMA EN (0. php(143) : runtime-created function(1) : eval()'d code(156) : runtime-created. 5 Multitoque: É necessário ter um dispositivo habilitado para toque para usar qualquer funcionalidade multitoque. chepuntaxt - hace ms de 1 ao es una pena que esta opcion click and load no este en el megadownloader, ya que este es el mejor gestor en el momento para los enlaces de Mega, ya que me permite descargar a maxima velocidad a cualquier hora del dia y si lo hago del jdownloader no es asi a veces si me permite la maxima velocidad y a veces no,. Edit: Que nadie haga caso al usuario del video de youtube y mucho menos se baje el programa que sale en el video que te modifica el registro. January 16, 2018 flac guns n roses. It allow to create a menu with Quickboot faster : you click one button and it creates local copy of xex that works with Quickboot from XEDev Team. today 396 Characters - 61 Words - Total Views - 9689 Choosa Choosa Song Making Video Dhruva Movi e Ram Charan Tej Rakul Preet Hey Ma Letra; 00 03 10 Min 4 17 Mb 192 Kbps Hum Jab Ek Saath Hein Mohammad Rafi Saab; 00 04 06 Min 5 40 Mb 192 Kbps Tu Chahiye Lyrics Full Song Atif Aslam Bajrangi Bhaijaan Salman Khan Kareena Kapoor Mp3. 檔案縮小軟體。影片檔案太大無法分享給朋友嗎?推薦高品質線上影片壓縮工具,不需要需安裝任何軟體,支援mp4、flv等多格式的壓縮與轉檔,還能輕易調整視頻的畫質和尺寸,無論是要上。. Safe and Virus Free. They protect me, so now it's my destiny to protect them. Na Softonic, nós submetemos todos os arquivos hospedados na nossa plataforma a uma varredura, para avaliar e evitar danos em potencial no seu dispositivo. Spotify, descargar gratis. For lewd stuff with filenames like RJ74765 either add a. Audio: Latino (AC3 2. Find out more about megadownloader. 皆さん、こんばんは、 陽いずる紅の宿 勝浦観光ホテル 宿主 です。 いよいよ 11月突入 ですね。 残すところ 今年もあと二ヶ月 足らず。. 58 secBig money this week in Mega Millions and Powerball games. Click the blue download button on the page to try it out, and steps are as follows:. Adore You 10. Télécharger Biffty La Potence Album {ZIP & Torrent} HQ HOT 2018 Telecharger Album Biffty La Potence Complet Gratuit [Deluxe Edition] Biffty La Potence (2018) - Telecharger l'album complet TELECHARGER~ Biffty La Potence Telecharger Complet Album Gratuitement [FUITE] TÉLÉCHARGER Biffty La Potence. En los últimos días he podido leer en muchos lugares de Internet que el programa MegaDownloader ya no funciona, y lo cierto es que no es así, ya que yo he probado tanto su versión portable como la versión 1. http://relaws. today 396 Characters - 61 Words - Total Views - 9689 Choosa Choosa Song Making Video Dhruva Movi e Ram Charan Tej Rakul Preet Hey Ma Letra; 00 03 10 Min 4 17 Mb 192 Kbps Hum Jab Ek Saath Hein Mohammad Rafi Saab; 00 04 06 Min 5 40 Mb 192 Kbps Tu Chahiye Lyrics Full Song Atif Aslam Bajrangi Bhaijaan Salman Khan Kareena Kapoor Mp3. O interessante é que pesquisando pelo google encontrei a URL do iTUNES com este filme, lá dizia HD, ai baixei o iTunes para Windows louco pra ver o trailer e conferir se é mesmo HD, e quando pesquisei lá não encontrei o filme Brumas De Avalon aka The Mists Of Avalon, ai não entendi direito o que aconteceu, acho que foi erro na página, mesmo porque o link do trailer nem abra. For example, the data rates of modern residential high-speed Internet connections are commonly expressed in megabits per second (Mbit/s). Reasons for. Hola gente, seguidores del canal. Da es keine German 1080P Uncut Version zu geben schien, habe ich aus Source AUDIO: Jack and the Giants 2013 Uncut German AC3D DL 720p BluRay x264 -. MegaDownloader Esta herramienta funciona de modo más o menos similar al famoso jdownloader pero para enlaces mega y no pesa tanto ni consume tantos recursos. Method 2: Uninstall MegaDownloader with A Trustworthy Tool. N Sync - Tearin' Up My Heart (Radio Edit) 3:29 04. Can not Be Tamed 09. The answer is simple: MegaDownloader is an unofficial client to download files from Mega, which is the online storage service created some years ago by Kim Dotcom. Tải game Far Cry 1 (2004) thể loại Game Offline tốc độ cao từ fshare, 4share, google drive cho tốc độ vượt trội. • A D S L a 1 0 0 M e g a • A ll a r ic e r c a d i b u o n i s c o n t o • L 'a n t iv ir u s p e r F a c e b o o k Magazine L'hacker dei giochi di azzardo ci ha guidato in un mondo underground dove il PC diventa una macchina perfetta per scommesse sicure e vincite facili. What I’m recommending is a safe, smart, small-sized tool that applies to all the popular Windows versions. January 16, 2018 flac guns n roses.